#TITLE:The kisnlayer;
#SUBTITLE:Dead Master;
#ARTIST:Nightwish;
#TITLETRANSLIT:;
#SUBTITLETRANSLIT:;
#ARTISTTRANSLIT:;
#CREDIT:;
#BANNER:bn.jpg;
#BACKGROUND:bg.jpg;
#LYRICSPATH:;
#CDTITLE:cd.png;
#MUSIC:sdom2199.ogg;
#OFFSET:-1.846;
#SAMPLESTART:35.805;
#SAMPLELENGTH:12.000;
#SELECTABLE:YES;
#BPMS:0.000=176.683;
#STOPS:;
#BGCHANGES:;
// cache tags:
#FIRSTBEAT:0.000;
#LASTBEAT:444.000;
#SONGFILENAME:Songs/Super Dancer Online/The Kisnlayer/the kisnlayer.sm;
#HASMUSIC:1;
#HASBANNER:1;
#MUSICLENGTH:154.054;
// end cache tags

//---------------dance-single - ----------------
#NOTES:
     dance-single:
     :
     Hard:
     17:
     1.000,1.000,1.000,0.506,1.000,670.000,408.000,78.000,0.000,263.000:
1100
0000
0000
0000
,
0000
0000
0000
1110
0000
0000
0000
0000
0000
0000
0000
0000
0000
0000
0000
0000
,
0000
0111
0000
0000
0000
0000
0000
0000
0000
0000
0000
0000
0000
0110
0000
0000
,
0000
0000
0000
0000
0000
0000
0000
0000
0000
0110
0000
0000
0110
0000
0000
0000
,
0000
0000
0000
0000
,
0111
0000
0000
1110
,
0000
0000
0000
0000
0000
0000
0110
0000
0000
0000
0000
0000
0000
0111
0000
0000
,
0000
0110
0110
0000
0000
0000
0000
0000
,
0000
0000
0000
0000
0000
1110
0000
0000
,
0000
0000
0111
0000
,
0000
1110
0000
0000
0000
0000
0000
0000
0000
0000
0000
0110
0000
0110
0000
0000
,
0110
0000
0000
0000
,
0000
0000
0000
1110
0000
0000
0000
0000
,
0111
0000
0000
0000
0000
0000
0010
1100
0000
0000
0000
0000
0111
0000
0000
0000
,
1110
0000
0000
0000
0110
0000
0000
0000
1101
0000
0000
0000
1110
0000
0000
1001
,
1001
0000
0000
0000
1110
0000
0000
0000
0000
1101
0000
0000
0000
0111
0000
0000
,
0100
0010
0000
0000
1110
0000
0000
0000
0101
0000
0000
0000
1110
0000
1110
0000
,
0000
0101
0000
0101
0000
1111
0000
0000
0000
1001
0000
0000
0000
1111
0000
0000
,
0000
0101
0000
0000
0100
0011
0000
0000
1001
0000
0000
0000
0110
1000
0111
0000
,
0000
0000
1001
0000
1111
0000
0000
0000
0000
0101
0000
0000
0000
1111
0000
0000
,
0000
0111
0000
0000
0000
1111
0000
0000
0000
0110
0000
0000
0000
1101
0000
1101
,
0000
0000
0110
0000
0101
0000
0000
0000
1111
0000
0000
0000
0000
1001
0000
0000
,
1111
0000
0000
1101
0000
0101
0000
0000
0000
1111
0000
0000
0000
0111
0000
0111
,
0000
0000
1110
0000
0110
0000
0000
0000
0111
0000
0000
0000
0000
1110
0000
0000
,
0110
0000
0110
0000
0101
0000
0101
0111
,
0000
1010
1010
0000
0101
0000
1010
0000
,
1101
0000
1111
0000
0111
0000
0111
0111
,
0000
0110
0110
0000
1111
0000
1001
0000
,
0111
0000
0000
0000
0111
0000
0000
0000
1010
0000
0000
0010
1100
0110
1000
0000
,
0011
0000
0011
0000
0000
0000
0000
1100
0000
0000
0000
1100
0000
0000
0000
0000
,
1100
0000
0000
1100
0000
0000
0000
0000
0020
1100
0000
1100
0000
0000
0000
1100
,
0000
1100
0000
1100
0000
0000
0030
0000
0201
0000
0001
0000
0011
0000
0000
0000
,
0011
0000
0010
0000
1011
0000
0300
0020
1100
0000
0000
1100
1100
0000
0000
0000
,
1100
1100
1100
0000
1100
1100
1100
0030
,
0021
0000
0000
1100
0000
0000
0000
1100
0000
1100
0000
0100
0000
0000
0000
1100
,
1100
0000
0000
1100
0000
0030
0000
0002
1100
0000
1100
0000
0000
0003
0000
0020
,
1100
0000
0000
1100
0000
0000
0030
0201
0000
0011
0000
0011
0000
0000
0000
0011
,
0000
0011
0000
0011
0000
0300
0020
0000
1100
0000
0000
1100
0000
0000
0000
1100
,
0000
0000
0000
1100
0030
0000
0000
0211
0000
0011
0000
0311
0000
0000
0211
0000
,
0011
0000
0011
0000
0300
0000
1110
0020
1100
0000
0000
1100
0000
0000
0030
1100
,
0020
0000
0000
1100
0000
0030
0000
0211
0000
0011
0000
0011
0300
0000
0211
0000
,
0011
0000
0011
0000
0300
0000
1120
0000
0000
0000
0000
1100
0000
0030
0000
1110
,
0000
0000
0000
1110
0000
0000
1200
0011
0000
0000
0011
0000
0000
0011
0000
0011
,
0000
0011
0000
0000
0011
0000
0011
0000
1000
0300
0000
1110
0000
0000
0020
1100
,
0000
0000
1100
0000
0000
0000
1100
0000
0000
0000
1100
0000
0000
0030
0101
0000
,
0101
0000
0000
0110
0000
0000
1010
0000
1101
0000
0111
0000
0000
0000
0000
0011
,
0000
0011
0000
0011
0000
0010
0000
0010
0000
0010
0000
0000
0000
1111
0000
1211
,
0000
0010
0000
0300
0000
1111
0000
1111
0000
0000
0000
0111
0000
0111
0000
0111
,
0000
0000
1111
0000
0000
0000
0111
0000
0000
0000
0000
1111
0000
1111
0000
0000
,
0000
0110
0001
0000
1101
0000
0110
0000
0000
0000
0110
0000
0110
0000
0120
0000
,
0000
0000
1101
0000
0030
0000
1122
0000
0000
0100
0033
0000
1000
0200
0020
0000
,
0000
0300
0100
0000
0030
0000
0011
0100
1000
0000
0100
0020
0000
0000
0001
0100
,
0030
0000
0111
0000
0000
1000
0110
0000
0000
0002
0110
0000
0000
0203
0000
0010
,
0000
0300
0011
0100
0000
0000
0111
1000
0000
0100
0010
0000
0000
0011
0000
0000
,
0000
0111
0000
0000
0000
1120
0000
1101
0000
0000
0000
0030
0000
1210
0000
0010
,
0001
0000
0300
0000
2211
0000
0011
0000
3000
0000
0300
0020
0100
0000
0001
0100
,
0000
0001
1100
0000
0030
1211
0000
0000
0000
0000
1011
0000
0300
2222
0000
0000
,
0000
0000
3333
0010
0100
0000
0111
0000
0000
0000
0110
0000
0000
1111
0000
0000
,
0000
0111
0000
0000
0020
0101
0000
0000
1101
0000
0000
0000
0000
1132
0020
1100
,
0000
0003
0000
0030
0120
0001
0100
0000
0000
0101
0030
0000
0111
1000
0000
1111
,
0000
0000
0000
0000
0110
0000
0110
0000
0000
0000
0111
0000
0000
0111
0000
0000
,
0000
1111
0000
0000
0000
1111
0000
0000
0000
1111
0000
0000
0001
0110
0000
0000
,
0101
0000
0000
0000
0011
1100
0001
0000
0000
0000
0011
0100
0011
0000
0000
0000
,
0010
0000
0010
0100
0000
0000
0001
0000
0001
0000
1100
0000
0010
0010
0000
0000
,
0100
0000
0010
0000
0000
0011
1100
0000
0000
0010
0000
0111
0000
0000
0010
0000
,
0100
0011
0000
0011
1100
0000
0000
0000
0010
0000
0011
0000
0100
0000
1011
0100
,
0000
0011
0000
0100
0021
0000
0000
0000
0000
0000
0000
0000
0000
0000
0000
0000
,
0000
0100
0001
1000
0000
0000
0030
0000
0100
0010
0000
0001
0000
0100
1000
0011
,
0000
0001
0000
0000
0101
0001
0000
0100
0000
0001
0000
1001
0000
0010
0100
0010
,
0000
0010
0000
0100
0001
0000
0001
1000
0010
0000
0000
0010
0100
0000
0101
0001
,
0100
0001
0000
0100
0000
0010
0010
1000
0000
0000
0100
0001
0100
0001
0100
0001
,
0100
0001
0010
0000
1010
0000
0010
0000
0000
0100
0010
0010
0100
0000
0000
0001
,
0000
0101
0000
0000
0020
1000
0000
0000
0000
0000
0130
0000
0110
0000
0002
0000
,
0020
0000
0000
0103
1030
0000
0200
0000
0010
0300
0002
0010
0000
0100
0003
2000
,
0100
0000
3000
0020
0000
0000
0000
0000
0000
0000
0000
0001
0000
0101
0000
0000
,
0100
0001
0000
0101
0000
0000
1000
0030
0010
0200
0010
0000
0000
0010
0000
0000
,
1011
0000
0000
0010
1000
0000
1010
0000
0000
0000
1011
0010
0001
1000
0000
0010
,
0000
0010
0000
0010
1000
0300
0011
0100
0010
0000
0110
0000
0000
0000
0011
1100
,
0000
1111
0110
0110
0000
0111
0111
0000
,
1101
0000
1101
0000
0000
0000
0111
0000
0111
0000
0000
0000
1111
0000
0000
1110
,
0000
0000
0000
1111
0000
0111
0000
0000
0000
1111
0000
1111
0000
0000
0110
0000
,
0111
0000
0111
0000
0000
0000
1110
1110
0000
0000
0000
0110
0000
0000
0000
1111
,
0000
0000
0011
1100
0000
1111
0000
0000
0110
0000
0110
0000
0000
0111
0000
0000
,
0111
0120
0000
0000
1101
0000
0101
1030
0001
0210
0000
0000
0000
2010
0000
0000
,
0000
3320
0000
0001
0100
0000
0101
0000
0000
1101
0000
1101
0000
0000
0000
0030
,
0100
0210
0000
0011
0000
0000
1011
0000
1011
0000
1011
0000
0300
1111
0000
0000
,
0000
0120
0000
0100
0001
1100
0001
0000
0000
1101
0001
1100
0000
1101
0030
1111
,
0000
0200
0010
0000
1011
0000
0011
1000
0000
0000
1011
0000
1011
0000
1011
0000
,
0000
1011
0300
0121
0000
0000
0100
0001
0100
0001
0101
0000
0000
0130
0020
0000
,
0100
0000
0100
0000
0001
1100
0000
0000
1101
0000
0000
0000
0101
0101
0000
0100
,
0001
0030
0000
0210
0000
1011
0000
0300
0000
1111
0000
1111
0000
0000
0110
0000
,
0000
1111
0011
0000
0000
0000
0000
1111
0000
0000
1111
0000
0000
0000
1111
0000
,
0000
0000
0111
0000
0111
0000
0000
0000
1110
0110
0001
0111
0000
0000
0000
1111
,
0000
1111
0000
0000
1110
0000
1111
0000
0000
0110
0000
0110
0000
0110
0000
1111
,
0000
0000
0020
0100
0000
1100
0001
0000
0101
0030
0200
0010
0000
0010
0000
1321
,
0000
0100
0000
0001
0200
0030
0001
0010
0300
1000
0010
0000
0200
0000
0001
0000
,
0010
0000
0321
0100
0000
0000
1000
0130
0000
0010
0001
0010
0100
0000
1000
0110
,
0000
0010
0000
0102
0000
0010
0100
0003
1000
0100
0010
0000
0010
0000
0012
0000
,
0100
1000
0100
0010
0000
0103
0010
0000
0002
0010
0100
0000
1003
0100
0011
0000
,
0012
0000
0100
0000
1000
0100
0010
0000
0000
0203
0011
0022
0300
0000
0103
0000
,
0030
0010
0020
0200
0000
0030
0000
0011
0000
0310
0000
0100
0002
0010
0000
0100
,
2003
0000
0100
0011
3000
0000
0000
1111
0000
0000
0110
0000
0000
0110
0111
1000
,
0000
0000
1111
0000
0011
0000
0000
0000
1111
0000
0111
1000
0000
0000
0111
0000
,
0010
0101
0010
0100
0000
0000
0011
1100
0011
0000
1111
0000
0000
0010
1101
0000
,
0000
0110
0000
0110
0000
0000
0000
0110
0000
0110
0000
0111
0000
0000
0010
0101
,
0010
0100
0000
0000
0000
1111
0000
0000
0000
1011
0100
0000
0000
0110
0000
0000
,
0110
0000
1111
0000
0000
0000
0110
0000
0111
0000
0000
1111
0000
0000
0110
0000
,
0111
0000
0111
0000
0000
0101
1010
0000
0000
0110
0000
0110
0000
0100
0010
0000
,
0110
0000
0110
0001
1000
0100
0011
0000
0100
0011
0000
0000
0100
0010
0100
0020
,
0000
0101
1000
0001
0100
0000
0101
0000
0000
0101
0000
0000
0101
0000
0030
0000
,
0020
0000
0000
0000
,
0030
0000
0000
0000
;
